<?xml version="1.0" standalone="no"?>
<!DOCTYPE svg PUBLIC "-//W3C//DTD SVG 1.1//EN" "http://www.w3.org/Graphics/SVG/1.1/DTD/svg11.dtd" >
<svg xmlns="http://www.w3.org/2000/svg">
<metadata>
This is a custom SVG webfont generated by Font Squirrel.
Copyright   : Copyright  1988 1990 1993 2002 Adobe Systems Incorporated  All Rights Reserved  1981 2002 Heidelberger Druckmaschinen AG All rights reserved
Designer    : Linotype Staff
Foundry URL : httpwwwadobecomtype
</metadata>
<defs>
<font id="HelveticaNeueLTStd25UltraLt" horiz-adv-x="1024" >
<font-face units-per-em="2048" ascent="1462" descent="-586" />
<missing-glyph horiz-adv-x="569" />
<glyph unicode=" "  horiz-adv-x="569" />
<glyph unicode="&#x09;" horiz-adv-x="569" />
<glyph unicode="&#xa0;" horiz-adv-x="569" />
<glyph unicode="!" horiz-adv-x="378" d="M170 0v201h41v-201h-41zM170 373v1089h41v-1089h-41z" />
<glyph unicode="&#x22;" horiz-adv-x="569" d="M150 1001v461h40v-461h-40zM379 1001v461h41v-461h-41z" />
<glyph unicode="#" horiz-adv-x="1138" d="M72 469v41h266l49 362h-258v41h268l64 480h41l-64 -480h350l64 480h41l-64 -480h238v-41h-248l-49 -362h240v-41h-248l-64 -469h-41l64 469h-352l-64 -469h-41l64 469h-256zM379 510h350l49 362h-350z" />
<glyph unicode="$" horiz-adv-x="1138" d="M12 485h41q0 -461 490 -477v729q-231 53 -314 94q-174 90 -174 289q0 102 43 178t116 118t155 61.5t174 19.5v88h41v-90q467 -10 487 -442h-41q-14 391 -446 401v-684l16 -4q20 -4 57 -14l104 -28q34 -9 91 -27.5t85 -36t64.5 -47t54 -64.5t31 -83t13.5 -108 q0 -193 -153.5 -293t-362.5 -100v-180h-41v182q-248 10 -391.5 138t-139.5 380zM96 1120q0 -51 14.5 -93t33 -71.5t57.5 -55.5t67.5 -41t86.5 -32l89 -24q31 -8 99 -23v676q-115 -2 -209 -29.5t-166 -106.5t-72 -200zM584 6q193 0 334 89t141 265q0 41 -9.5 77t-18.5 63.5 t-34.5 52.5l-41 41t-54.5 35l-55 26q-16 8 -65.5 22.5t-62.5 17.5l-70 17l-64 15v-721z" />
<glyph unicode="%" horiz-adv-x="1402" d="M43 1063q0 158 83 256t228 98q152 0 235 -97t83 -255q0 -147 -85 -247.5t-233 -100.5q-152 0 -231.5 100.5t-79.5 245.5zM84 1063q0 -131 69.5 -218t200.5 -87t204 88t73 217q0 145 -69.5 229t-207.5 84q-135 0 -202.5 -85t-67.5 -228zM180 -70l975 1532h47l-975 -1532 h-47zM731 322q0 158 83 256t228 98q152 0 235 -97.5t83 -254.5q0 -147 -85 -248t-233 -101q-152 0 -231.5 101t-79.5 246zM772 322q0 -131 69.5 -218.5t201 -87.5t204 88.5t72.5 217.5q0 145 -69.5 229t-207.5 84q-135 0 -202.5 -85t-67.5 -228z" />
<glyph unicode="&#x26;" horiz-adv-x="1175" d="M90 328q0 68 26.5 132t58.5 106t97.5 94.5t101.5 75.5l109 71l-65 86l-75 99q-28 38 -52.5 94.5t-24.5 103.5q0 131 89 201.5t210 70.5q127 0 213 -73.5t86 -198.5q0 -47 -16.5 -91t-35.5 -74t-60 -67.5t-64.5 -56t-76.5 -55.5l-68 -49l385 -488q55 121 49 258h41 q2 -152 -62 -295l215 -272h-53l-182 231q-145 -266 -428 -266q-164 0 -291 100.5t-127 262.5zM131 328q0 -150 112.5 -236t264.5 -86q270 0 401 264l-401 504q-2 -2 -49 -31.5t-54.5 -33.5t-49.5 -33t-52 -39t-44 -39t-44 -46t-32.5 -47t-30 -54.5t-14.5 -57t-7 -65.5z M307 1194q0 -66 42 -134.5t169 -232.5q4 2 41 27t46 32t43 31.5t46.5 38t39 39t37.5 44.5l27 45q15 26 20 52.5t5 53.5q0 104 -74.5 167.5t-181.5 63.5q-111 0 -185.5 -61.5t-74.5 -165.5z" />
<glyph unicode="'" horiz-adv-x="342" d="M152 1001v461h41v-461h-41z" />
<glyph unicode="(" horiz-adv-x="454" d="M139 578q0 479 238 919h41q-238 -440 -238 -919q0 -504 240 -940h-41q-123 240 -181.5 461t-58.5 479z" />
<glyph unicode=")" horiz-adv-x="454" d="M35 1497h41q123 -240 181 -461t58 -479q0 -479 -237 -919h-41q238 440 237 919q1 504 -239 940z" />
<glyph unicode="*" horiz-adv-x="720" d="M66 1225l12 39l258 -88v286h41v-286l270 88l8 -39l-266 -88l170 -224l-33 -24l-170 221l-172 -213l-32 27l180 213z" />
<glyph unicode="+" horiz-adv-x="1228" d="M98 498v41h496v497h41v-497h495v-41h-495v-498h-41v498h-496z" />
<glyph unicode="," horiz-adv-x="569" d="M215 -203q49 49 49 203v201h41v-201q0 -180 -90 -244v41z" />
<glyph unicode="-" horiz-adv-x="681" d="M162 528v41h358v-41h-358z" />
<glyph unicode="." horiz-adv-x="569" d="M264 0v201h41v-201h-41z" />
<glyph unicode="/" horiz-adv-x="681" d="M-14 -35l669 1532h41l-669 -1532h-41z" />
<glyph unicode="0" horiz-adv-x="1138" d="M43 696.5q0 139.5 27.5 261t85 228t164 169t250 62.5t250 -62.5t163.5 -169t85 -228t28 -261t-28 -261.5t-85 -228.5t-163.5 -169t-250 -62.5t-250 62.5t-164 169t-85 228.5t-27.5 261.5zM84 696q0 -127 23.5 -238.5t76 -215t151.5 -165t234.5 -61.5t234.5 61.5 t151.5 165t76 215t23.5 238.5t-23.5 239t-76 215t-151.5 164.5t-234.5 61.5t-234.5 -61.5t-151.5 -164.5t-76 -215t-23.5 -239z" />
<glyph unicode="1" horiz-adv-x="1138" d="M236 1094v41q121 41 199.5 97t170.5 161h45v-1393h-41v1339h-4q-61 -84 -162.5 -149t-207.5 -96z" />
<glyph unicode="2" horiz-adv-x="1138" d="M113 0q0 35 7 68.5t15 60.5t31.5 59.5t37 53t49.5 53.5t51 48t60.5 48t59.5 44t64 46l63 43q98 68 158.5 115t129 114.5t101.5 139.5t33 149q0 158 -107.5 246t-279.5 88q-209 0 -308.5 -118.5t-99.5 -321.5h-41q2 231 116 356t333 125q186 0 307 -97t121 -278 q0 -82 -33 -157.5t-99.5 -145t-128 -119t-157.5 -116.5l-110 -76l-93 -68q-70 -51 -95 -77l-66 -72q-40 -45 -57 -86t-21 -84h897v-41h-938z" />
<glyph unicode="3" horiz-adv-x="1138" d="M82 471h41q-16 -217 111.5 -336t353.5 -119q178 0 304 98.5t126 270.5q0 170 -107.5 254t-292.5 90h-100v41h100q154 0 263.5 74t109.5 231q-2 156 -116.5 228.5t-278.5 72.5q-205 0 -320.5 -105.5t-113.5 -309.5h-41q-2 221 125 338.5t350 117.5q184 0 310 -84t126 -258 q0 -143 -83 -227t-216 -96v-4q137 -14 231.5 -104.5t94.5 -258.5q0 -186 -137.5 -298t-333.5 -112q-242 0 -381 131.5t-125 364.5z" />
<glyph unicode="4" horiz-adv-x="1138" d="M70 362v50l696 981h51v-990h252v-41h-252v-362h-41v362h-706zM111 403h665v932h-4z" />
<glyph unicode="5" horiz-adv-x="1138" d="M76 446h41q-6 -201 114.5 -315.5t327.5 -114.5q201 0 320.5 122t119.5 325q0 195 -121.5 317.5t-318.5 122.5q-125 0 -229.5 -55t-159.5 -158h-51l149 703h715v-41h-682l-127 -596h4q115 188 381 188q213 0 347 -135t134 -346q0 -221 -133 -354.5t-348 -133.5 q-221 0 -355 126t-128 345z" />
<glyph unicode="6" horiz-adv-x="1138" d="M80 657q0 111 15.5 213.5t53 204t95 176t150.5 120.5t210 46q176 0 292 -99t138 -253h-41q-20 90 -63 154.5t-100.5 96.5t-112.5 46t-115 14q-119 0 -210 -52t-142 -132t-83 -189.5t-41 -209t-7 -205.5h4q31 150 160 250t295 100q188 0 334.5 -137t146.5 -344 q0 -205 -142.5 -343.5t-338.5 -138.5q-133 0 -241 64.5t-165 155.5q-92 140 -92 462zM137 456.5q0 -182.5 129 -311.5t311.5 -129t311.5 129t129 311.5t-129 311.5t-311.5 129t-311.5 -129t-129 -311.5z" />
<glyph unicode="7" horiz-adv-x="1138" d="M125 1352v41h889v-56q-307 -307 -468 -625.5t-161 -711.5h-41q-8 723 625 1352h-844z" />
<glyph unicode="8" horiz-adv-x="1138" d="M63 389q0 160 95.5 259.5t261.5 115.5v4q-123 16 -205 98t-82 199q0 178 121 265t315.5 87t315.5 -87t121 -265q0 -117 -82 -199t-205 -98v-4q166 -16 261 -115.5t95 -259.5q0 -205 -143.5 -309.5t-362.5 -104.5t-362.5 104.5t-143.5 309.5zM104 389q0 -188 132.5 -280.5 t333 -92.5t332.5 92.5t132 280.5q0 186 -130 269t-334.5 83t-335 -83t-130.5 -269zM174 1065q0 -137 120 -210t275.5 -73t275.5 73t120 210q0 164 -113 237.5t-283 73.5t-282.5 -73.5t-112.5 -237.5z" />
<glyph unicode="9" horiz-adv-x="1138" d="M80 936q0 205 142.5 343t338.5 138q133 0 240.5 -64.5t165.5 -154.5q94 -141 94 -463q0 -139 -26.5 -266t-83 -241.5t-164 -183.5t-252.5 -69q-176 0 -292 99.5t-139 253.5h41q20 -90 63.5 -154.5t101 -96.5t112.5 -46.5t115 -14.5q119 0 210 52.5t142 132.5t83 189.5 t41 208.5t7 206h-4q-31 -150 -160 -250t-295 -100q-188 0 -334.5 137t-146.5 344zM121 936q0 -182 129 -311t311 -129t311 129t129 311t-129 311t-311 129t-311 -129t-129 -311z" />
<glyph unicode=":" horiz-adv-x="569" d="M264 0v201h41v-201h-41zM264 852v201h41v-201h-41z" />
<glyph unicode=";" horiz-adv-x="569" d="M215 -203q49 49 49 203v201h41v-201q0 -180 -90 -244v41zM264 852v201h41v-201h-41z" />
<glyph unicode="&#x3c;" horiz-adv-x="1228" d="M94 494v49l1041 510v-43l-1004 -492l1004 -491v-43z" />
<glyph unicode="=" horiz-adv-x="1228" d="M98 299v41h1032v-41h-1032zM98 696v41h1032v-41h-1032z" />
<glyph unicode="&#x3e;" horiz-adv-x="1228" d="M94 -16v43l1004 491l-1004 492v43l1041 -510v-49z" />
<glyph unicode="?" d="M72 1010q-8 217 111.5 352t332.5 135q174 0 289 -91t115 -249q0 -68 -18.5 -126t-51.5 -102t-58.5 -71t-60.5 -57q-8 -6 -12 -10q-119 -115 -161 -196t-42 -222h-41q0 137 43 229t158 205q2 2 32.5 27.5t54 51t53.5 65.5t46.5 93.5t16.5 112.5q0 141 -100.5 220 t-262.5 79q-199 0 -305.5 -122t-97.5 -324h-41zM475 0v201h41v-201h-41z" />
<glyph unicode="@" horiz-adv-x="1638" d="M117 723q0 313 217 524t524 211q283 0 472.5 -169t191.5 -447q2 -227 -141.5 -399.5t-301.5 -172.5q-61 0 -96 37t-25 92h-4q-94 -129 -278 -129q-119 0 -199 86t-80 211q0 131 58.5 265.5t174 230.5t253.5 96q98 0 177 -47t103 -127h4l50 135h43l-228 -590 q-86 -219 51 -219q135 0 265.5 159t132.5 372q2 252 -175.5 413.5t-447.5 161.5q-297 0 -498.5 -202.5t-201.5 -491.5q0 -334 201.5 -520.5t498.5 -186.5q180 0 337 90.5t257 233.5h47q-100 -164 -276 -264.5t-365 -100.5q-141 0 -270 45.5t-236.5 133.5t-171 235.5 t-63.5 333.5zM438 567q0 -111 70 -183.5t176 -72.5q221 0 315 246l146 377q-27 98 -102.5 141t-168.5 43q-180 0 -308 -181.5t-128 -369.5z" />
<glyph unicode="A" horiz-adv-x="1177" d="M-25 0l594 1462h54l577 -1462h-45l-192 481h-746l-194 -481h-48zM233 522h713l-348 899h-4z" />
<glyph unicode="B" horiz-adv-x="1251" d="M96 0v1462h629q180 0 296 -94t116 -270q0 -133 -88 -229.5t-222 -104.5v-4q150 -4 252.5 -102.5t102.5 -260.5q0 -190 -132 -293.5t-350 -103.5h-604zM137 41h582q186 0 304 91t118 263q0 178 -121 262t-295 84h-588v-700zM137 782h588q156 0 263.5 83t107.5 233 q0 160 -102.5 241.5t-268.5 81.5h-588v-639z" />
<glyph unicode="C" horiz-adv-x="1402" d="M51 719q0 111 23.5 217t77 208.5t130 180.5t195.5 125t262 47q137 0 252 -48t183.5 -122t107.5 -152.5t41 -150.5h-41q-14 170 -164.5 301t-378.5 131q-139 0 -251.5 -48t-184.5 -124t-121 -175t-69.5 -196.5t-20.5 -193.5q0 -295 168 -504t453 -209q254 0 410.5 156.5 t191.5 410.5h41q-39 -276 -207 -442t-436 -166q-291 0 -476.5 212t-185.5 542z" />
<glyph unicode="D" horiz-adv-x="1327" d="M111 0v1462h512q119 0 222 -34.5t196.5 -113.5t148.5 -227.5t55 -355.5q0 -190 -56 -334.5t-154.5 -228.5t-218.5 -126t-257 -42h-448zM152 41h417q276 0 455.5 176t179.5 514q0 158 -33.5 281t-89 198.5t-134.5 124.5t-159.5 67.5t-175.5 18.5h-460v-1380z" />
<glyph unicode="E" horiz-adv-x="1099" d="M111 0v1462h970v-41h-929v-639h874v-41h-874v-700h938v-41h-979z" />
<glyph unicode="F" horiz-adv-x="985" d="M111 0v1462h901v-41h-860v-639h778v-41h-778v-741h-41z" />
<glyph unicode="G" horiz-adv-x="1478" d="M66 731q0 330 185 548t501 218q244 0 407.5 -133t198.5 -358h-41q-39 207 -189.5 328.5t-375.5 121.5q-297 0 -471.5 -208t-174.5 -517q0 -313 170 -519t482 -206q246 0 413.5 160t167.5 401v76h-567v41h608v-686h-41v364h-4q-57 -184 -212.5 -290.5t-370.5 -106.5 q-326 0 -506 217t-180 549z" />
<glyph unicode="H" horiz-adv-x="1327" d="M111 0v1462h41v-680h1024v680h41v-1462h-41v741h-1024v-741h-41z" />
<glyph unicode="I" horiz-adv-x="262" d="M111 0v1462h41v-1462h-41z" />
<glyph unicode="J" horiz-adv-x="948" d="M37 365v88h41v-88q0 -358 348 -359q182 0 271 92t89 314v1050h41v-1081q0 -416 -401 -416q-199 0 -294 109t-95 291z" />
<glyph unicode="K" horiz-adv-x="1214" d="M111 0v1462h41v-889l1013 889h62l-707 -622l748 -840h-56l-725 815l-335 -297v-518h-41z" />
<glyph unicode="L" horiz-adv-x="985" d="M111 0v1462h41v-1421h854v-41h-895z" />
<glyph unicode="M" horiz-adv-x="1597" d="M111 0v1462h67l619 -1409h4l618 1409h68v-1462h-41v1411h-4l-621 -1411h-45l-620 1411h-4v-1411h-41z" />
<glyph unicode="N" horiz-adv-x="1327" d="M111 0v1462h61l999 -1411h5v1411h41v-1462h-62l-999 1411h-4v-1411h-41z" />
<glyph unicode="O" horiz-adv-x="1476" d="M66 731q0 328 179 547t494.5 219t494.5 -219t179 -547t-179 -547t-494.5 -219t-494.5 219t-179 547zM106 731q4 -322 174.5 -523.5t459 -201.5t458.5 202t174 523q-4 322 -174 523.5t-458.5 201.5t-459 -201.5t-174.5 -523.5z" />
<glyph unicode="P" horiz-adv-x="1175" d="M111 0v1462h591q211 0 328 -101t117 -298q0 -188 -128 -292.5t-337 -104.5h-530v-666h-41zM152 707h550q178 0 291 95t113 261q0 174 -102.5 266t-301.5 92h-550v-714z" />
<glyph unicode="Q" horiz-adv-x="1476" d="M66 731q0 328 179 547t494.5 219t494.5 -219t179 -547q0 -373 -217 -586l236 -161l-21 -29l-242 164q-174 -154 -430 -154q-315 0 -494 219t-179 547zM106 731q4 -322 174.5 -523.5t458.5 -201.5q233 0 394 137l-259 176l23 33l264 -182q207 199 211 561 q-4 322 -174 523.5t-458.5 201.5t-459 -201.5t-174.5 -523.5z" />
<glyph unicode="R" horiz-adv-x="1251" d="M111 0v1462h598q225 0 333.5 -92t112.5 -283v-13q0 -136 -78 -231q-82 -99 -235 -132v-4q174 -23 231 -118t57 -288q0 -248 35 -301h-45q-31 78 -30 307q0 98 -13.5 161.5t-53.5 117t-119 77t-202 23.5h-550v-686h-41zM152 727h546q176 0 297 92q119 91 119 267 q0 336 -395 335h-567v-694z" />
<glyph unicode="S" horiz-adv-x="1251" d="M70 485h41q0 -479 530 -479q193 0 334 89t141 265q0 53 -14.5 98.5t-32.5 77t-56 58.5t-68 43t-82 32.5t-82.5 24.5t-90.5 22l-86 19q-229 53 -305 90q-186 90 -186 295q0 104 44 181t118.5 118t158.5 59.5t178 18.5q231 0 368.5 -105.5t147.5 -338.5h-41 q-14 403 -475 403q-84 0 -159.5 -16.5t-145 -52t-111.5 -104.5t-42 -163q0 -39 8 -72.5t19.5 -59t35 -49.5t41.5 -40t54 -32.5t58.5 -26t68.5 -21.5l70 -18q24 -6 75 -17.5t73 -17.5q20 -4 58 -14l103 -28q34 -9 91.5 -27.5t85 -36t64.5 -47t54 -64.5t30.5 -83t13.5 -108 q0 -193 -153.5 -293t-362.5 -100q-264 0 -420 128q-152 125 -151 379v13z" />
<glyph unicode="T" d="M-35 1421v41h1094v-41h-527v-1421h-40v1421h-527z" />
<glyph unicode="U" horiz-adv-x="1294" d="M111 545v917h41v-917q0 -539 495.5 -539t495.5 539v917h41v-917q0 -287 -138.5 -433.5t-398.5 -146.5t-398 146.5t-138 433.5z" />
<glyph unicode="V" horiz-adv-x="1101" d="M-37 1462h41l553 -1409h4l537 1409h41l-557 -1462h-45z" />
<glyph unicode="W" horiz-adv-x="1781" d="M-20 1462h43l413 -1411h4l422 1411h60l428 -1411h4l407 1411h41l-424 -1462h-55l-430 1411h-4l-422 -1411h-55z" />
<glyph unicode="X" horiz-adv-x="1064" d="M-55 0l563 752l-533 710h54l506 -678l509 678h52l-533 -710l557 -752h-51l-534 719l-539 -719h-51z" />
<glyph unicode="Y" horiz-adv-x="1101" d="M-61 1462h51l561 -803l563 803h49l-592 -846v-616h-41v616z" />
<glyph unicode="Z" d="M-39 0v55l1022 1366h-965v41h1006v-55l-1022 -1366h1038v-41h-1079z" />
<glyph unicode="[" horiz-adv-x="454" d="M197 -362v1859h231v-41h-190v-1778h190v-40h-231z" />
<glyph unicode="\" horiz-adv-x="681" d="M-14 1497h41l669 -1532h-41z" />
<glyph unicode="]" horiz-adv-x="454" d="M27 -322h190v1778h-190v41h231v-1859h-231v40z" />
<glyph unicode="^" horiz-adv-x="1228" d="M121 465l473 928h41l473 -928h-41l-453 887l-452 -887h-41z" />
<glyph unicode="_" d="M0 -154h1024v-102h-1024v102z" />
<glyph unicode="`" horiz-adv-x="266" d="M-78 1497h60l256 -295h-31z" />
<glyph unicode="a" horiz-adv-x="985" d="M45 260q0 92 29.5 155.5t87 95.5t113 45t133.5 19q256 14 309 31q92 25 100 113q2 12 2 26q0 57 -9 100.5t-38 91.5t-94.5 73.5t-165.5 25.5q-164 0 -257 -81t-103 -228h-41q8 156 110.5 253t290.5 97q340 0 348 -301v-670q0 -37 21.5 -54t51.5 -15l60 4v-41 q-27 -1 -53 -1h-27q-39 1 -66.5 26.5t-27.5 76.5v138h-4q-33 -109 -147.5 -187t-270.5 -78q-160 0 -256 74t-96 211zM86 260q0 -102 73.5 -173t233.5 -71q197 0 311.5 121t114.5 287v194h-4q-16 -23 -45 -38t-77 -22t-83 -11t-103.5 -7t-98.5 -5q-72 -6 -122 -17.5 t-99.5 -39t-75 -83t-25.5 -135.5z" />
<glyph unicode="b" horiz-adv-x="1099" d="M113 0v1462h41v-704h4q37 147 147.5 233t274.5 86q209 0 328.5 -159.5t119.5 -393.5q0 -242 -122 -395.5t-326 -153.5q-158 0 -269.5 88.5t-152.5 231.5h-4v-295h-41zM154 524q0 -213 114.5 -360.5t311.5 -147.5q195 0 301 146.5t106 361.5q0 129 -40 242t-135 191.5 t-232 78.5q-195 0 -310.5 -135t-115.5 -377z" />
<glyph unicode="c" d="M63 504q0 246 126 409.5t366 163.5q154 0 266.5 -91t130.5 -253h-41q-25 147 -122 225t-234 78q-121 0 -211 -47t-140 -127t-75 -170t-25 -188q0 -205 113 -346.5t313 -141.5q158 0 267.5 93.5t122.5 248.5h41q-16 -176 -134 -279.5t-297 -103.5q-217 0 -342 152 t-125 377z" />
<glyph unicode="d" horiz-adv-x="1099" d="M57 524q0 233 120 393t329 160q164 0 274.5 -86t147.5 -233h4v704h41v-1462h-41v295h-4q-41 -143 -152.5 -231.5t-269.5 -88.5q-205 0 -327 153.5t-122 395.5zM98 524q0 -215 106.5 -361.5t301.5 -146.5q197 0 311.5 147.5t114.5 360.5q0 242 -116 377t-310 135 q-137 0 -232.5 -78.5t-135.5 -191.5t-40 -242z" />
<glyph unicode="e" d="M51 526q0 252 136.5 401.5t324.5 149.5q158 0 266.5 -81t154.5 -204q41 -109 41 -239q0 -17 -1 -35h-881q4 -229 103.5 -365.5t312.5 -136.5q166 0 275.5 90.5t136.5 258.5h41q-20 -180 -143.5 -285t-305.5 -105h-6q-229 0 -341 150q-114 151 -114 401zM92 559h840 q2 203 -108.5 340t-307.5 137q-174 0 -294 -130t-130 -347z" />
<glyph unicode="f" horiz-adv-x="417" d="M-2 1012v41h180v233q0 59 18.5 97t53.5 54.5t63.5 20.5t71.5 4q16 0 32.5 -1t33 -4t22.5 -3v-41q-51 8 -96 8q-94 0 -126 -33.5t-32 -115.5v-219h227v-41h-227v-1012h-41v1012h-180z" />
<glyph unicode="g" horiz-adv-x="1062" d="M57 561q0 223 119 369.5t334 146.5q147 0 258 -87t141 -218h4v281h41v-1018q0 -211 -113.5 -316.5t-324.5 -105.5q-172 0 -284.5 82t-116.5 250h41q6 -147 105 -219t253 -72q399 0 399 381v317h-4q-31 -135 -151.5 -215t-261.5 -80q-209 0 -324 144.5t-115 359.5zM98 561 q0 -203 104.5 -333t291.5 -130q197 0 307 132t110 331q2 195 -105.5 335t-295.5 140q-197 0 -304.5 -136t-107.5 -339z" />
<glyph unicode="h" d="M113 0v1462h41v-669h4q31 127 130 205.5t249 78.5q168 0 271 -100t103 -279v-698h-41v692q0 172 -94 258t-239 86q-180 0 -281.5 -127t-101.5 -313v-596h-41z" />
<glyph unicode="i" horiz-adv-x="266" d="M113 0v1053h41v-1053h-41zM113 1255v207h41v-207h-41z" />
<glyph unicode="j" horiz-adv-x="266" d="M-100 -322q131 0 172 30t41 153v1192h41v-1207q0 -135 -57.5 -170.5t-196.5 -37.5v40zM113 1255v207h41v-207h-41z" />
<glyph unicode="k" horiz-adv-x="909" d="M113 0v1462h41v-1013l727 604h59l-483 -402l518 -651h-55l-494 623l-272 -226v-397h-41z" />
<glyph unicode="l" horiz-adv-x="266" d="M113 0v1462h41v-1462h-41z" />
<glyph unicode="m" horiz-adv-x="1593" d="M113 0v1053h41v-260h4q31 123 123 203.5t213 80.5h7q118 0 198 -63q83 -66 110 -183h4q31 111 123 178.5t211 67.5q180 0 257 -100t77 -285v-692h-41v692q0 170 -65.5 257t-227.5 87q-150 0 -239 -107.5t-91 -260.5v-668h-41v676v10q0 158 -59 253q-61 97 -223 97 q-152 0 -246 -129t-94 -311v-596h-41z" />
<glyph unicode="n" d="M113 0v1053h41v-260h4q31 127 130 205.5t249 78.5q168 0 271 -100t103 -279v-698h-41v692q0 172 -94 258t-239 86q-180 0 -281.5 -127t-101.5 -313v-596h-41z" />
<glyph unicode="o" horiz-adv-x="1062" d="M57 526.5q0 229.5 127 390t348 160.5q219 0 346.5 -161.5t127.5 -389.5q0 -229 -127 -390t-348.5 -161t-347.5 161t-126 390.5zM98 526q0 -213 116 -361.5t318 -148.5q201 0 317 149.5t116 360.5q0 209 -116 359.5t-317 150.5q-203 0 -318.5 -149.5t-115.5 -360.5z" />
<glyph unicode="p" horiz-adv-x="1099" d="M113 -362v1415h41v-295h4q41 143 152.5 231t269.5 88q205 0 326.5 -153.5t121.5 -395.5q0 -233 -120 -393t-328 -160q-164 0 -274.5 86t-147.5 234h-4v-657h-41zM154 528q0 -242 115.5 -377t310.5 -135q137 0 232 79t135 191.5t40 241.5q0 215 -106.5 361.5t-300.5 146.5 q-197 0 -311.5 -147.5t-114.5 -360.5z" />
<glyph unicode="q" horiz-adv-x="1099" d="M57 528q0 242 122 395.5t327 153.5q158 0 269.5 -88t152.5 -231h4v295h41v-1415h-41v657h-4q-37 -147 -147.5 -233.5t-274.5 -86.5q-209 0 -329 160t-120 393zM98 528q0 -129 40 -241.5t135.5 -191.5t232.5 -79q195 0 310.5 135.5t115.5 376.5q0 213 -115 360.5 t-311 147.5q-195 0 -301.5 -146.5t-106.5 -361.5z" />
<glyph unicode="r" horiz-adv-x="530" d="M113 0v1053h41v-260h4q33 129 135 209q95 75 254 76q12 0 24 -1v-41q-15 1 -28 1q-182 0 -282 -122q-108 -131 -107 -319v-596h-41z" />
<glyph unicode="s" horiz-adv-x="948" d="M61 360h41q0 -172 99.5 -258t285.5 -86q82 0 156 23.5t129 82t55 142.5q0 27 -6 51.5t-13 43t-26 35.5l-29 29q-11 11 -40 24.5l-41.5 19.5t-49 16.5t-49 14.5t-55.5 14t-53 12q-166 41 -236 72q-127 55 -127 217q0 102 88.5 183t268.5 81t280.5 -83t100.5 -253h-41 q0 152 -90.5 223.5t-249.5 71.5q-102 0 -172 -27.5t-97.5 -71.5t-37 -72.5t-9.5 -51.5q0 -137 117 -184q35 -14 270 -78q57 -14 83 -21.5t75 -25t73.5 -35.5t53.5 -47t41 -67t12 -87q0 -100 -58 -168.5t-141 -96.5t-182 -28q-426 0 -426 385z" />
<glyph unicode="t" horiz-adv-x="493" d="M-10 1012v41h194v331h41v-331h238v-41h-238v-807q0 -55 12.5 -91t36 -50.5t43 -18.5t50.5 -4q72 0 90 6v-41q-74 -6 -101 -6q-172 0 -172 197v815h-194z" />
<glyph unicode="u" d="M113 354v699h41v-693q0 -172 94 -258t239 -86q180 0 281.5 127t101.5 314v596h41v-1053h-41v260h-4q-31 -127 -130 -206t-249 -79q-168 0 -271 100.5t-103 278.5z" />
<glyph unicode="v" horiz-adv-x="833" d="M-25 1053h50l407 -1012h4l377 1012h45l-397 -1053h-51z" />
<glyph unicode="w" horiz-adv-x="1402" d="M-16 1053h41l313 -1012h4l326 1012h63l324 -1012h4l319 1012h41l-336 -1053h-53l-328 1012h-4l-329 -1012h-58z" />
<glyph unicode="x" horiz-adv-x="833" d="M-31 0l422 545l-383 508h53l355 -478l362 478h49l-385 -508l422 -545h-51l-397 514l-396 -514h-51z" />
<glyph unicode="y" horiz-adv-x="833" d="M-25 1053h45l418 -998l377 998h43l-485 -1268q-20 -51 -47 -83t-68 -45t-72.5 -16t-91.5 -3v40h18q99 0 144 22q49 24 84 114l76 196z" />
<glyph unicode="z" horiz-adv-x="833" d="M10 0v51l738 961h-682v41h725v-52l-738 -960h770v-41h-813z" />
<glyph unicode="{" horiz-adv-x="681" d="M174 553v41q63 10 105.5 111.5t42.5 230.5v338q0 121 32.5 172t116.5 51h102v-41h-98q-61 0 -87 -47t-26 -172v-336q0 -104 -37.5 -202.5t-109.5 -129.5q68 -33 107.5 -125t39.5 -211v-331q0 -131 26 -177.5t87 -46.5h98v-40h-102q-84 0 -116.5 53t-32.5 174v334 q0 135 -31 217t-117 137z" />
<glyph unicode="|" horiz-adv-x="454" d="M207 -438v2048h41v-2048h-41z" />
<glyph unicode="}" horiz-adv-x="681" d="M109 -322h98q61 0 86.5 47.5t25.5 172.5v335q0 104 38 203t110 129q-68 33 -108 125t-40 211v332q0 131 -25.5 177t-86.5 46h-98v41h102q84 0 116.5 -53t32.5 -174v-334q0 -135 31 -217t117 -137v-41q-63 -10 -105.5 -111.5t-42.5 -230.5v-338q0 -121 -32.5 -172 t-116.5 -51h-102v40z" />
<glyph unicode="~" horiz-adv-x="1228" d="M158 432q94 178 241 178q80 4 240 -69q168 -72 211 -72q39 0 75 24.5t55 50t50 72.5l41 -12q-51 -82 -101 -129t-122 -47q-25 0 -52.5 7t-44 13.5t-53 22.5t-49.5 23q-6 2 -34.5 16t-39.5 18l-36 15q-27 10 -44.5 14t-43 8t-52.5 4q-115 0 -200 -149z" />
<glyph unicode="&#xa1;" horiz-adv-x="378" d="M170 -362v1099h41v-1099h-41zM170 909v201h41v-201h-41z" />
<glyph unicode="&#xa2;" horiz-adv-x="1138" d="M121 528q0 217 115.5 378t320.5 169v180h41v-180q166 -4 278.5 -92t131.5 -250h-41q-23 145 -121 221t-248 80v-1018h10q150 0 251.5 96.5t117.5 245.5h41q-20 -178 -135 -279.5t-285 -103.5v-223h-41v223q-209 8 -322.5 168t-113.5 385zM162 528q0 -205 102.5 -354 t292.5 -158v1018q-190 -8 -292.5 -156.5t-102.5 -349.5z" />
<glyph unicode="&#xa3;" horiz-adv-x="1138" d="M80 6q242 205 242 422q0 168 -66 279h-156v41h136q-8 18 -43 81.5t-51.5 98.5t-33 89t-16.5 99q0 184 134 282.5t329 98.5q238 0 368 -139t103 -375h-41q20 225 -98.5 349t-331.5 124q-176 0 -299 -85t-123 -255q0 -45 17.5 -98t35 -90t51.5 -98l46 -82h323v-41h-305 q61 -109 61 -279q0 -219 -202 -391l4 -4q100 76 209 76q59 0 202 -50q135 -53 197 -53q90 0 156.5 40t156.5 130l27 -29q-88 -100 -166 -141t-174 -41q-76 0 -205 51q-154 51 -194 52q-131 0 -256 -103z" />
<glyph unicode="&#xa4;" horiz-adv-x="1138" d="M61 696q4 201 136 344l-117 117l29 29l116 -117q147 135 344 135q201 0 344 -135l117 117l29 -29l-117 -117q135 -143 135 -344q0 -197 -135 -344l117 -116l-29 -29l-117 117q-143 -131 -344 -136q-197 0 -344 136l-116 -117l-29 29l117 116q-136 147 -136 344z M102 696.5q0 -192.5 137.5 -330t330 -137.5t329.5 137.5t137 330t-137 329.5t-329.5 137t-330 -137t-137.5 -329.5z" />
<glyph unicode="&#xa5;" horiz-adv-x="1138" d="M43 1462h45l479 -784h4l480 784h45l-486 -796h279v-41h-301v-209h301v-41h-301v-375h-41v375h-301v41h301v209h-301v41h282z" />
<glyph unicode="&#xa6;" horiz-adv-x="454" d="M207 -182v512h41v-512h-41zM207 842v512h41v-512h-41z" />
<glyph unicode="&#xa7;" horiz-adv-x="1138" d="M117 717q0 92 66.5 172t156.5 112q-109 92 -109 224q0 80 34 138t88.5 85t103.5 38t98 11q160 0 255 -103.5t95 -275.5h-41q-4 160 -84 249t-229 89q-63 0 -122.5 -18.5t-110 -74.5t-46.5 -142q4 -121 117 -203q55 -39 143.5 -88t133.5 -78q217 -139 286.5 -226 t69.5 -208q0 -100 -80 -178t-160 -101q131 -109 121 -252q-10 -135 -104 -204.5t-230 -69.5q-174 0 -268 104.5t-90 292.5h41q-2 -166 74.5 -260t242.5 -96q143 -2 218 73.5t75 159.5q0 86 -29.5 137.5t-134.5 127.5q-49 35 -179 115.5t-181 115.5q-135 90 -178 164t-43 170 zM158 700q0 -152 204 -284q354 -227 381 -248q80 18 159 86t79 166q0 104 -67.5 185t-270.5 212q-37 23 -139.5 81t-126.5 75q-41 -12 -85 -39t-89 -90.5t-45 -143.5z" />
<glyph unicode="&#xa8;" horiz-adv-x="266" d="M-47 1208v166h41v-166h-41zM272 1208v166h41v-166h-41z" />
<glyph unicode="&#xa9;" horiz-adv-x="1638" d="M53 731.5q0 317.5 224.5 541.5t542 224t541.5 -224t224 -541.5t-224 -542t-541.5 -224.5t-542 224.5t-224.5 542zM94 731q0 -301 212 -513t513 -212t513 212t212 513t-212 513t-513 212t-513 -212t-212 -513zM391 719q0 205 120 336t325 131q150 0 255 -82t123 -227h-40 q-18 129 -113.5 198.5t-224.5 69.5q-188 0 -296 -119t-108 -305t111.5 -310t298.5 -124q117 0 209 74.5t123 203.5h40q-33 -143 -134 -231t-238 -88q-203 0 -327 135t-124 338z" />
<glyph unicode="&#xaa;" horiz-adv-x="614" d="M0 924q0 109 67.5 147.5t184.5 46.5q18 0 53 1t53.5 2t45 4t42 9.5t31 15.5t21.5 24.5t6 35.5q0 88 -48 127t-151 39q-199 0 -221 -172h-41q23 213 262 213q233 0 240 -182v-389q0 -23 10 -32t25.5 -9t33.5 2v-41q-33 -2 -52 0t-38.5 17.5t-19.5 45.5v84h-4v-14 q-23 -70 -93.5 -108.5t-177.5 -38.5q-98 0 -163.5 43t-65.5 129zM41 924q0 -68 54.5 -99.5t133.5 -31.5q127 0 201 67.5t74 171.5v98h-4q-10 -14 -27.5 -23t-44.5 -14.5t-50.5 -7.5t-62.5 -4t-63 -4q-100 -10 -155.5 -40.5t-55.5 -112.5z" />
<glyph unicode="&#xab;" horiz-adv-x="720" d="M135 532v33l211 285v-72l-170 -229l170 -230v-71zM326 532v33l211 285v-72l-170 -229l170 -230v-71z" />
<glyph unicode="&#xac;" horiz-adv-x="1228" d="M98 696v41h1032v-547h-40v506h-992z" />
<glyph unicode="&#xad;" horiz-adv-x="681" d="M162 528v41h358v-41h-358z" />
<glyph unicode="&#xae;" horiz-adv-x="1638" d="M53 731.5q0 317.5 224.5 541.5t542 224t541.5 -224t224 -541.5t-224 -542t-541.5 -224.5t-542 224.5t-224.5 542zM94 731q0 -301 212 -513t513 -212t513 212t212 513t-212 513t-513 212t-513 -212t-212 -513zM561 276v881h289q291 0 291 -237q0 -106 -64.5 -164 t-165.5 -66l271 -414h-52l-264 410q-20 -2 -63 -2h-201v-408h-41zM602 725h213q285 0 285 195q0 197 -254 196h-244v-391z" />
<glyph unicode="&#xaf;" horiz-adv-x="266" d="M-104 1286v41h475v-41h-475z" />
<glyph unicode="&#xb0;" horiz-adv-x="819" d="M117 1124q0 121 85 207t207.5 86t207.5 -86t85 -207q0 -123 -85 -210t-207.5 -87t-207.5 86t-85 211zM158 1124q0 -109 74.5 -182.5t177.5 -73.5q106 0 179 74t73 182q0 104 -72 178t-180 74q-100 0 -176 -77t-76 -175z" />
<glyph unicode="&#xb1;" horiz-adv-x="1228" d="M98 0v41h1032v-41h-1032zM98 590v41h496v405h41v-405h495v-41h-495v-406h-41v406h-496z" />
<glyph unicode="&#xb2;" horiz-adv-x="681" d="M37 567q0 29 7 55.5t16.5 47t31.5 45.5l35 38q12 13 45 37.5l46 34t53 35t51 31.5q86 57 132 93t87 96.5t41 123.5q0 84 -65.5 128t-172.5 44q-131 0 -191.5 -63.5t-58.5 -184.5h-41q4 143 72 216t219 73q123 0 201 -53t78 -160q0 -88 -55.5 -161.5t-215.5 -178.5 q-129 -82 -195.5 -140t-72.5 -116h563v-41h-610z" />
<glyph unicode="&#xb3;" horiz-adv-x="681" d="M23 850h40q-10 -125 70 -190.5t219 -65.5q111 0 188.5 54t77.5 151q0 104 -74.5 150t-189.5 46h-49v43h53q104 0 174 42t70 132q0 164 -246 164q-266 0 -266 -231h-41q-2 129 83 200.5t226 71.5q121 0 203 -47t82 -158q0 -86 -59.5 -140t-149.5 -54v-4q98 -6 161.5 -60.5 t63.5 -154.5q0 -113 -89 -179.5t-216 -66.5q-160 0 -249.5 78t-81.5 219z" />
<glyph unicode="&#xb4;" horiz-adv-x="266" d="M20 1202l271 295h59l-299 -295h-31z" />
<glyph unicode="&#xb5;" horiz-adv-x="1138" d="M170 -362v1415h39v-693q0 -172 94 -258t240 -86q180 0 281.5 127t101.5 314v596h41v-1053h-41v260h-4q-29 -127 -129.5 -206t-249.5 -79q-244 0 -328 191h-4v-528h-41z" />
<glyph unicode="&#xb6;" horiz-adv-x="1228" d="M135 1061q0 193 120 297t337 104h414v-1749h-41v1708h-334v-1708h-41v959q-199 0 -327 113.5t-128 275.5z" />
<glyph unicode="&#xb7;" horiz-adv-x="569" d="M219 696.5q0 28.5 19.5 47t46 18.5t46 -18.5t19.5 -47t-19.5 -47t-46 -18.5t-46 18.5t-19.5 47z" />
<glyph unicode="&#xb8;" horiz-adv-x="266" d="M-51 -340l18 39q94 -33 150 -33q160 0 159 109q0 39 -36.5 60.5t-75.5 21.5q-66 0 -111 -27l-30 20l116 150h41l-84 -115q4 0 24.5 6.5t43.5 6.5q66 0 109.5 -30t43.5 -93q0 -150 -200 -150q-57 0 -168 35z" />
<glyph unicode="&#xb9;" horiz-adv-x="681" d="M127 1208v39q78 25 129 58.5t111 97.5h45v-836h-41v789h-4q-72 -101 -240 -148z" />
<glyph unicode="&#xba;" horiz-adv-x="614" d="M0 1087q0 137 83 233.5t226.5 96.5t225 -96t81.5 -234q0 -139 -81.5 -237t-227.5 -98q-143 0 -225 98t-82 237zM41 1087q0 -119 73.5 -206.5t194.5 -87.5t193.5 89t72.5 205q0 115 -72.5 202t-193.5 87t-194.5 -87t-73.5 -202z" />
<glyph unicode="&#xbb;" horiz-adv-x="720" d="M184 248v71l170 230l-170 229v72l211 -285v-33zM375 248v71l170 230l-170 229v72l211 -285v-33z" />
<glyph unicode="&#xbc;" horiz-adv-x="1708" d="M209 1208v39q78 25 129 58.5t111 97.5h45v-836h-41v789h-4q-72 -101 -240 -148zM295 -70l975 1532h47l-975 -1532h-47zM848 209v51l442 576h51v-586h156v-41h-156v-209h-41v209h-452zM891 250h409v526v4l-4 -4z" />
<glyph unicode="&#xbd;" horiz-adv-x="1708" d="M133 1208v39q78 25 129 58.5t111 97.5h45v-836h-41v789h-4q-72 -101 -240 -148zM199 -70l975 1532h47l-975 -1532h-47zM967 0q0 29 7 55.5t16 47t32 44.5l35 38q12 13 45 38t46 34t53 34.5t50 32.5q86 57 132.5 93t87 96t40.5 124q0 84 -65.5 128t-171.5 44 q-131 0 -191.5 -63.5t-58.5 -184.5h-41q4 143 71.5 216t219.5 73q123 0 200.5 -53.5t77.5 -159.5q0 -88 -55 -162t-215 -178q-129 -82 -195.5 -140.5t-72.5 -115.5h563v-41h-610z" />
<glyph unicode="&#xbe;" horiz-adv-x="1708" d="M113 850h41q-10 -125 69.5 -190.5t218.5 -65.5q111 0 189 54t78 151q0 104 -75 151t-190 47q-33 0 -49 -2v43h54q104 0 173.5 42t69.5 132q0 164 -246 164q-266 0 -266 -231h-41q-2 129 83 200.5t227 71.5q121 0 202.5 -47t81.5 -158q0 -86 -59.5 -140t-149.5 -54v-4 q98 -6 162 -60.5t64 -154.5q0 -113 -89.5 -179.5t-216.5 -66.5q-160 0 -249.5 78t-81.5 219zM406 -70l974 1532h47l-974 -1532h-47zM946 209v51l443 576h51v-586h155v-41h-155v-209h-41v209h-453zM989 250h410v526v4l-4 -4z" />
<glyph unicode="&#xbf;" d="M104 -47q0 72 18.5 131t59.5 110.5t57.5 68t63.5 56.5q119 115 161 196t42 222h41q0 -137 -43 -229t-158 -205q-2 -2 -32.5 -27.5t-53 -51t-52.5 -65.5t-46.5 -93.5t-16.5 -112.5q0 -141 100.5 -220t262.5 -79q199 0 305.5 122t97.5 324h41q8 -217 -111.5 -352 t-332.5 -135q-174 0 -289 91t-115 249zM508 909v201h41v-201h-41z" />
<glyph unicode="&#xc0;" horiz-adv-x="1177" d="M-25 0l594 1462h54l577 -1462h-45l-192 481h-746l-194 -481h-48zM233 522h713l-348 899h-4zM379 1862h59l256 -295h-30z" />
<glyph unicode="&#xc1;" horiz-adv-x="1177" d="M-25 0l594 1462h54l577 -1462h-45l-192 481h-746l-194 -481h-48zM233 522h713l-348 899h-4zM477 1567l271 295h59l-299 -295h-31z" />
<glyph unicode="&#xc2;" horiz-adv-x="1177" d="M-25 0l594 1462h54l577 -1462h-45l-192 481h-746l-194 -481h-48zM233 522h713l-348 899h-4zM342 1577l231 285h31l234 -285h-41l-211 252l-203 -252h-41z" />
<glyph unicode="&#xc3;" horiz-adv-x="1177" d="M-25 0l594 1462h54l577 -1462h-45l-192 481h-746l-194 -481h-48zM233 522h713l-348 899h-4zM319 1597q0 57 43.5 109.5t96.5 52.5q49 0 135 -59.5t125 -59.5q45 0 72.5 34t27.5 79h41q0 -63 -37 -108.5t-104 -45.5q-53 0 -135 59.5t-125 59.5q-41 0 -70 -40t-29 -81h-41z " />
<glyph unicode="&#xc4;" horiz-adv-x="1177" d="M-25 0l594 1462h54l577 -1462h-45l-192 481h-746l-194 -481h-48zM233 522h713l-348 899h-4zM410 1573v166h41v-166h-41zM729 1573v166h41v-166h-41z" />
<glyph unicode="&#xc5;" horiz-adv-x="1177" d="M-25 0l594 1462h54l577 -1462h-45l-192 481h-746l-194 -481h-48zM233 522h713l-348 899h-4zM410 1688q0 72 54 126t126 54t126 -54.5t54 -125.5q0 -74 -53 -127.5t-127 -53.5q-72 0 -126 53.5t-54 127.5zM451 1687.5q0 -57.5 40.5 -98.5t98 -41t98.5 41t41 98.5t-41 98.5 t-98.5 41t-98 -41t-40.5 -98.5z" />
<glyph unicode="&#xc6;" horiz-adv-x="1744" d="M-25 0l775 1462h960v-41h-803v-639h738v-41h-738v-700h803v-41h-844v561h-549l-297 -561h-45zM338 602h528v823h-96z" />
<glyph unicode="&#xc7;" horiz-adv-x="1402" d="M51 719q0 111 23.5 217t77 208.5t130 180.5t195.5 125t262 47q137 0 252 -48t183.5 -122t107.5 -152.5t41 -150.5h-41q-14 170 -164.5 301t-378.5 131q-139 0 -251.5 -48t-184.5 -124t-121 -175t-69.5 -196.5t-20.5 -193.5q0 -295 168 -504t453 -209q254 0 410.5 156.5 t191.5 410.5h41q-39 -274 -204 -440t-429 -168l-59 -80q4 0 24.5 6.5t42.5 6.5q66 0 110 -30t44 -93q0 -150 -201 -150q-57 0 -168 35l19 39q94 -33 149 -33q160 0 160 109q0 39 -37 60.5t-76 21.5q-66 0 -110 -27l-31 20l90 117q-279 12 -454 222.5t-175 529.5z" />
<glyph unicode="&#xc8;" horiz-adv-x="1099" d="M111 0v1462h970v-41h-929v-639h874v-41h-874v-700h938v-41h-979zM340 1862h59l256 -295h-30z" />
<glyph unicode="&#xc9;" horiz-adv-x="1099" d="M111 0v1462h970v-41h-929v-639h874v-41h-874v-700h938v-41h-979zM438 1567l271 295h59l-299 -295h-31z" />
<glyph unicode="&#xca;" horiz-adv-x="1099" d="M111 0v1462h970v-41h-929v-639h874v-41h-874v-700h938v-41h-979zM303 1577l232 285h30l234 -285h-41l-211 252l-203 -252h-41z" />
<glyph unicode="&#xcb;" horiz-adv-x="1099" d="M111 0v1462h970v-41h-929v-639h874v-41h-874v-700h938v-41h-979zM371 1573v166h41v-166h-41zM690 1573v166h41v-166h-41z" />
<glyph unicode="&#xcc;" horiz-adv-x="262" d="M-80 1862h60l256 -295h-31zM111 0v1462h41v-1462h-41z" />
<glyph unicode="&#xcd;" horiz-adv-x="262" d="M18 1567l271 295h59l-299 -295h-31zM111 0v1462h41v-1462h-41z" />
<glyph unicode="&#xce;" horiz-adv-x="262" d="M-117 1577l232 285h30l234 -285h-41l-211 252l-203 -252h-41zM111 0v1462h41v-1462h-41z" />
<glyph unicode="&#xcf;" horiz-adv-x="262" d="M-49 1573v166h41v-166h-41zM111 0v1462h41v-1462h-41zM270 1573v166h41v-166h-41z" />
<glyph unicode="&#xd0;" horiz-adv-x="1327" d="M-20 741v41h131v680h512q119 0 222 -34.5t196.5 -113.5t148.5 -227.5t55 -355.5q0 -190 -56 -334.5t-154.5 -228.5t-218.5 -126t-257 -42h-448v741h-131zM152 41h417q276 0 455.5 176t179.5 514q0 158 -33.5 281t-89 198.5t-134.5 124.5t-159.5 67.5t-175.5 18.5h-460 v-639h608v-41h-608v-700z" />
<glyph unicode="&#xd1;" horiz-adv-x="1327" d="M111 0v1462h61l999 -1411h5v1411h41v-1462h-62l-999 1411h-4v-1411h-41zM393 1597q0 57 43 109.5t96 52.5q49 0 135.5 -59.5t125.5 -59.5q45 0 72.5 34t27.5 79h41q0 -63 -37 -108.5t-104 -45.5q-53 0 -135.5 59.5t-125.5 59.5q-41 0 -69.5 -40t-28.5 -81h-41z" />
<glyph unicode="&#xd2;" horiz-adv-x="1476" d="M66 731q0 328 179 547t494.5 219t494.5 -219t179 -547t-179 -547t-494.5 -219t-494.5 219t-179 547zM106 731q4 -322 174.5 -523.5t459 -201.5t458.5 202t174 523q-4 322 -174 523.5t-458.5 201.5t-459 -201.5t-174.5 -523.5zM528 1862h60l256 -295h-31z" />
<glyph unicode="&#xd3;" horiz-adv-x="1476" d="M66 731q0 328 179 547t494.5 219t494.5 -219t179 -547t-179 -547t-494.5 -219t-494.5 219t-179 547zM106 731q4 -322 174.5 -523.5t459 -201.5t458.5 202t174 523q-4 322 -174 523.5t-458.5 201.5t-459 -201.5t-174.5 -523.5zM627 1567l270 295h59l-299 -295h-30z" />
<glyph unicode="&#xd4;" horiz-adv-x="1476" d="M66 731q0 328 179 547t494.5 219t494.5 -219t179 -547t-179 -547t-494.5 -219t-494.5 219t-179 547zM106 731q4 -322 174.5 -523.5t459 -201.5t458.5 202t174 523q-4 322 -174 523.5t-458.5 201.5t-459 -201.5t-174.5 -523.5zM492 1577l231 285h31l233 -285h-41l-211 252 l-203 -252h-40z" />
<glyph unicode="&#xd5;" horiz-adv-x="1476" d="M66 731q0 328 179 547t494.5 219t494.5 -219t179 -547t-179 -547t-494.5 -219t-494.5 219t-179 547zM106 731q4 -322 174.5 -523.5t459 -201.5t458.5 202t174 523q-4 322 -174 523.5t-458.5 201.5t-459 -201.5t-174.5 -523.5zM469 1597q0 57 43 109.5t96 52.5 q49 0 135 -59.5t125 -59.5q45 0 73 34t28 79h41q0 -63 -37 -108.5t-105 -45.5q-53 0 -135 59.5t-125 59.5q-41 0 -69.5 -40t-28.5 -81h-41z" />
<glyph unicode="&#xd6;" horiz-adv-x="1476" d="M66 731q0 328 179 547t494.5 219t494.5 -219t179 -547t-179 -547t-494.5 -219t-494.5 219t-179 547zM106 731q4 -322 174.5 -523.5t459 -201.5t458.5 202t174 523q-4 322 -174 523.5t-458.5 201.5t-459 -201.5t-174.5 -523.5zM559 1573v166h41v-166h-41zM879 1573v166h41 v-166h-41z" />
<glyph unicode="&#xd7;" horiz-adv-x="1228" d="M197 129l389 389l-389 389l28 27l387 -391l392 391l28 -27l-391 -389l391 -389l-28 -29l-392 392l-387 -392z" />
<glyph unicode="&#xd8;" horiz-adv-x="1476" d="M66 731q0 328 179 547t494 219q297 0 480 -203l120 133l31 -24l-125 -139q168 -209 168 -533q0 -328 -179 -547t-495 -219q-301 0 -481 207l-145 -162l-31 25l149 166q-165 208 -165 530zM106 731q4 -307 154 -498l930 1031q-172 193 -451 192q-289 0 -459 -201.5 t-174 -523.5zM287 203q168 -197 452 -197q289 0 459 202t174 523q-4 309 -155 500z" />
<glyph unicode="&#xd9;" horiz-adv-x="1294" d="M111 545v917h41v-917q0 -539 495.5 -539t495.5 539v917h41v-917q0 -287 -138.5 -433.5t-398.5 -146.5t-398 146.5t-138 433.5zM436 1862h60l256 -295h-31z" />
<glyph unicode="&#xda;" horiz-adv-x="1294" d="M111 545v917h41v-917q0 -539 495.5 -539t495.5 539v917h41v-917q0 -287 -138.5 -433.5t-398.5 -146.5t-398 146.5t-138 433.5zM535 1567l270 295h59l-299 -295h-30z" />
<glyph unicode="&#xdb;" horiz-adv-x="1294" d="M111 545v917h41v-917q0 -539 495.5 -539t495.5 539v917h41v-917q0 -287 -138.5 -433.5t-398.5 -146.5t-398 146.5t-138 433.5zM399 1577l232 285h31l233 -285h-41l-211 252l-203 -252h-41z" />
<glyph unicode="&#xdc;" horiz-adv-x="1294" d="M111 545v917h41v-917q0 -539 495.5 -539t495.5 539v917h41v-917q0 -287 -138.5 -433.5t-398.5 -146.5t-398 146.5t-138 433.5zM467 1573v166h41v-166h-41zM786 1573v166h41v-166h-41z" />
<glyph unicode="&#xdd;" horiz-adv-x="1101" d="M-61 1462h51l561 -803l563 803h49l-592 -846v-616h-41v616zM438 1612l271 295h59l-299 -295h-31z" />
<glyph unicode="&#xde;" horiz-adv-x="1175" d="M111 0v1462h41v-254h550q211 0 328 -101t117 -298q0 -188 -128 -292.5t-337 -104.5h-530v-412h-41zM152 453h550q178 0 291 95t113 261q0 174 -102.5 266t-301.5 92h-550v-714z" />
<glyph unicode="&#xdf;" horiz-adv-x="985" d="M113 0v1139q0 180 104.5 264t255.5 84q156 0 266.5 -92t110.5 -246q0 -131 -66.5 -220t-193.5 -110v-4q170 -14 253 -115.5t83 -269.5q0 -213 -119 -326.5t-393 -103.5v41q471 -25 471 389q0 111 -34 184.5t-100.5 111.5t-146.5 52.5t-190 14.5v41q174 -4 284.5 70.5 t110.5 244.5q0 135 -96.5 216t-239.5 81q-49 0 -95 -10.5t-101.5 -39t-89 -97t-33.5 -166.5v-1133h-41z" />
<glyph unicode="&#xe0;" horiz-adv-x="985" d="M45 260q0 92 29.5 155.5t87 95.5t113 45t133.5 19q256 14 309 31q92 25 100 113q2 12 2 26q0 57 -9 100.5t-38 91.5t-94.5 73.5t-165.5 25.5q-164 0 -257 -81t-103 -228h-41q8 156 110.5 253t290.5 97q340 0 348 -301v-670q0 -37 21.5 -54t51.5 -15l60 4v-41 q-41 -2 -80 -1t-66.5 26.5t-27.5 76.5v138h-4q-33 -109 -147.5 -187t-270.5 -78q-160 0 -256 74t-96 211zM86 260q0 -102 73.5 -173t233.5 -71q197 0 311.5 121t114.5 287v194h-4q-16 -23 -45 -38t-77 -22t-83 -11t-103.5 -7t-98.5 -5q-72 -6 -122 -17.5t-99.5 -39t-75 -83 t-25.5 -135.5zM283 1452h59l256 -295h-31z" />
<glyph unicode="&#xe1;" horiz-adv-x="985" d="M45 260q0 92 29.5 155.5t87 95.5t113 45t133.5 19q256 14 309 31q92 25 100 113q2 12 2 26q0 57 -9 100.5t-38 91.5t-94.5 73.5t-165.5 25.5q-164 0 -257 -81t-103 -228h-41q8 156 110.5 253t290.5 97q340 0 348 -301v-670q0 -37 21.5 -54t51.5 -15l60 4v-41 q-41 -2 -80 -1t-66.5 26.5t-27.5 76.5v138h-4q-33 -109 -147.5 -187t-270.5 -78q-160 0 -256 74t-96 211zM86 260q0 -102 73.5 -173t233.5 -71q197 0 311.5 121t114.5 287v194h-4q-16 -23 -45 -38t-77 -22t-83 -11t-103.5 -7t-98.5 -5q-72 -6 -122 -17.5t-99.5 -39t-75 -83 t-25.5 -135.5zM381 1157l270 295h60l-299 -295h-31z" />
<glyph unicode="&#xe2;" horiz-adv-x="985" d="M45 260q0 92 29.5 155.5t87 95.5t113 45t133.5 19q256 14 309 31q92 25 100 113q2 12 2 26q0 57 -9 100.5t-38 91.5t-94.5 73.5t-165.5 25.5q-164 0 -257 -81t-103 -228h-41q8 156 110.5 253t290.5 97q340 0 348 -301v-670q0 -37 21.5 -54t51.5 -15l60 4v-41 q-41 -2 -80 -1t-66.5 26.5t-27.5 76.5v138h-4q-33 -109 -147.5 -187t-270.5 -78q-160 0 -256 74t-96 211zM86 260q0 -102 73.5 -173t233.5 -71q197 0 311.5 121t114.5 287v194h-4q-16 -23 -45 -38t-77 -22t-83 -11t-103.5 -7t-98.5 -5q-72 -6 -122 -17.5t-99.5 -39t-75 -83 t-25.5 -135.5zM246 1167l231 285h31l233 -285h-41l-211 252l-202 -252h-41z" />
<glyph unicode="&#xe3;" horiz-adv-x="985" d="M45 260q0 92 29.5 155.5t87 95.5t113 45t133.5 19q256 14 309 31q92 25 100 113q2 12 2 26q0 57 -9 100.5t-38 91.5t-94.5 73.5t-165.5 25.5q-164 0 -257 -81t-103 -228h-41q8 156 110.5 253t290.5 97q340 0 348 -301v-670q0 -37 21.5 -54t51.5 -15l60 4v-41 q-41 -2 -80 -1t-66.5 26.5t-27.5 76.5v138h-4q-33 -109 -147.5 -187t-270.5 -78q-160 0 -256 74t-96 211zM86 260q0 -102 73.5 -173t233.5 -71q197 0 311.5 121t114.5 287v194h-4q-16 -23 -45 -38t-77 -22t-83 -11t-103.5 -7t-98.5 -5q-72 -6 -122 -17.5t-99.5 -39t-75 -83 t-25.5 -135.5zM223 1188q0 57 43 109.5t96 52.5q49 0 135.5 -59.5t125.5 -59.5q45 0 72.5 33.5t27.5 78.5h41q0 -63 -37 -108t-104 -45q-53 0 -135 59.5t-126 59.5q-41 0 -69.5 -40t-28.5 -81h-41z" />
<glyph unicode="&#xe4;" horiz-adv-x="985" d="M45 260q0 92 29.5 155.5t87 95.5t113 45t133.5 19q256 14 309 31q92 25 100 113q2 12 2 26q0 57 -9 100.5t-38 91.5t-94.5 73.5t-165.5 25.5q-164 0 -257 -81t-103 -228h-41q8 156 110.5 253t290.5 97q340 0 348 -301v-670q0 -37 21.5 -54t51.5 -15l60 4v-41 q-41 -2 -80 -1t-66.5 26.5t-27.5 76.5v138h-4q-33 -109 -147.5 -187t-270.5 -78q-160 0 -256 74t-96 211zM86 260q0 -102 73.5 -173t233.5 -71q197 0 311.5 121t114.5 287v194h-4q-16 -23 -45 -38t-77 -22t-83 -11t-103.5 -7t-98.5 -5q-72 -6 -122 -17.5t-99.5 -39t-75 -83 t-25.5 -135.5zM313 1163v166h41v-166h-41zM633 1163v166h41v-166h-41z" />
<glyph unicode="&#xe5;" horiz-adv-x="985" d="M45 260q0 92 29.5 155.5t87 95.5t113 45t133.5 19q256 14 309 31q92 25 100 113q2 12 2 26q0 57 -9 100.5t-38 91.5t-94.5 73.5t-165.5 25.5q-164 0 -257 -81t-103 -228h-41q8 156 110.5 253t290.5 97q340 0 348 -301v-670q0 -37 21.5 -54t51.5 -15l60 4v-41 q-41 -2 -80 -1t-66.5 26.5t-27.5 76.5v138h-4q-33 -109 -147.5 -187t-270.5 -78q-160 0 -256 74t-96 211zM86 260q0 -102 73.5 -173t233.5 -71q197 0 311.5 121t114.5 287v194h-4q-16 -23 -45 -38t-77 -22t-83 -11t-103.5 -7t-98.5 -5q-72 -6 -122 -17.5t-99.5 -39t-75 -83 t-25.5 -135.5zM313 1380q0 72 54.5 126.5t126 54.5t126 -54.5t54.5 -126.5q0 -74 -53.5 -127t-126.5 -53q-72 0 -126.5 53t-54.5 127zM354 1380.5q0 -57.5 41 -98.5t98.5 -41t98.5 41t41 98.5t-41 98.5t-98.5 41t-98.5 -41t-41 -98.5z" />
<glyph unicode="&#xe6;" horiz-adv-x="1820" d="M66 260q0 92 29.5 155.5t87 95.5t112.5 45t133 19q256 14 309 31q92 25 101 113q2 12 2 26q0 57 -9.5 100.5t-38 91.5t-94 73.5t-166.5 25.5q-164 0 -257 -81t-103 -228h-41q8 156 110.5 253t290.5 97q340 0 349 -307h4q43 139 151.5 223t268.5 84q227 0 343.5 -161.5 t106.5 -397.5h-874q8 -227 108.5 -364.5t310.5 -137.5q162 0 275 91.5t133 257.5h41q-16 -174 -139 -281t-310 -109q-168 -2 -280.5 88.5t-153.5 253.5h-4q-31 -158 -154.5 -250t-289.5 -92q-160 0 -256 74t-96 211zM106 260q0 -102 74 -173t234 -71q197 0 311.5 121 t114.5 287v194h-4q-16 -23 -45 -38t-77 -22t-83 -11t-103.5 -7t-99.5 -5q-72 -6 -122 -17.5t-99 -39t-75 -83t-26 -135.5zM881 559h833q0 209 -105.5 343t-303.5 134q-190 0 -299 -127t-125 -350z" />
<glyph unicode="&#xe7;" d="M63 504q0 246 126 409.5t366 163.5q154 0 266.5 -91t130.5 -253h-41q-25 147 -122 225t-234 78q-121 0 -211 -47t-140 -127t-75 -170t-25 -188q0 -205 113 -346.5t313 -141.5q158 0 267.5 93.5t122.5 248.5h41q-16 -172 -130 -274t-288 -107l-68 -92q4 0 24.5 6.5 t43.5 6.5q66 0 109.5 -30t43.5 -93q0 -150 -200 -150q-57 0 -168 35l18 39q94 -33 150 -33q160 0 159 109q0 39 -36.5 60.5t-75.5 21.5q-66 0 -111 -27l-31 20l101 130q-203 8 -321 158.5t-118 365.5z" />
<glyph unicode="&#xe8;" d="M51 526q0 252 136.5 401.5t324.5 149.5q158 0 266.5 -81t154.5 -204.5t40 -273.5h-881q4 -229 103.5 -365.5t312.5 -136.5q166 0 275.5 90.5t136.5 258.5h41q-20 -180 -143.5 -285t-305.5 -105q-233 -2 -347 149.5t-114 401.5zM92 559h840q2 203 -108.5 340t-307.5 137 q-174 0 -294 -130t-130 -347zM301 1452h59l256 -295h-30z" />
<glyph unicode="&#xe9;" d="M51 526q0 252 136.5 401.5t324.5 149.5q158 0 266.5 -81t154.5 -204.5t40 -273.5h-881q4 -229 103.5 -365.5t312.5 -136.5q166 0 275.5 90.5t136.5 258.5h41q-20 -180 -143.5 -285t-305.5 -105q-233 -2 -347 149.5t-114 401.5zM92 559h840q2 203 -108.5 340t-307.5 137 q-174 0 -294 -130t-130 -347zM399 1157l271 295h59l-299 -295h-31z" />
<glyph unicode="&#xea;" d="M51 526q0 252 136.5 401.5t324.5 149.5q158 0 266.5 -81t154.5 -204.5t40 -273.5h-881q4 -229 103.5 -365.5t312.5 -136.5q166 0 275.5 90.5t136.5 258.5h41q-20 -180 -143.5 -285t-305.5 -105q-233 -2 -347 149.5t-114 401.5zM92 559h840q2 203 -108.5 340t-307.5 137 q-174 0 -294 -130t-130 -347zM264 1167l232 285h30l234 -285h-41l-211 252l-203 -252h-41z" />
<glyph unicode="&#xeb;" d="M51 526q0 252 136.5 401.5t324.5 149.5q158 0 266.5 -81t154.5 -204.5t40 -273.5h-881q4 -229 103.5 -365.5t312.5 -136.5q166 0 275.5 90.5t136.5 258.5h41q-20 -180 -143.5 -285t-305.5 -105q-233 -2 -347 149.5t-114 401.5zM92 559h840q2 203 -108.5 340t-307.5 137 q-174 0 -294 -130t-130 -347zM332 1163v166h41v-166h-41zM651 1163v166h41v-166h-41z" />
<glyph unicode="&#xec;" horiz-adv-x="266" d="M-78 1452h60l256 -295h-31zM113 0v1053h41v-1053h-41z" />
<glyph unicode="&#xed;" horiz-adv-x="266" d="M20 1157l271 295h59l-299 -295h-31zM113 0v1053h41v-1053h-41z" />
<glyph unicode="&#xee;" horiz-adv-x="266" d="M-115 1167l232 285h30l234 -285h-41l-211 252l-203 -252h-41zM113 0v1053h41v-1053h-41z" />
<glyph unicode="&#xef;" horiz-adv-x="266" d="M-47 1163v166h41v-166h-41zM113 0v1053h41v-1053h-41zM272 1163v166h41v-166h-41z" />
<glyph unicode="&#xf0;" horiz-adv-x="1062" d="M57 508q0 219 127 374.5t348.5 155.5t331.5 -147h8q-55 113 -149 224.5t-180 182.5l-250 -139l-31 31l248 137q-90 72 -191 123l33 29q106 -55 197 -131l252 139l30 -33l-245 -137q219 -203 319.5 -395.5t100.5 -413.5t-127 -376t-348.5 -155t-347.5 155t-126 376z M98 508q0 -205 116 -347.5t318 -142.5q201 0 317 143.5t116 346.5q0 201 -116 345t-317 144q-203 0 -318.5 -143t-115.5 -346z" />
<glyph unicode="&#xf1;" d="M113 0v1053h41v-260h4q31 127 130 205.5t249 78.5q168 0 271 -100t103 -279v-698h-41v692q0 172 -94 258t-239 86q-180 0 -281.5 -127t-101.5 -313v-596h-41zM242 1188q0 57 43 109.5t96 52.5q49 0 135 -59.5t125 -59.5q45 0 72.5 33.5t27.5 78.5h41q0 -63 -36.5 -108 t-104.5 -45q-53 0 -135 59.5t-125 59.5q-41 0 -69.5 -40t-28.5 -81h-41z" />
<glyph unicode="&#xf2;" horiz-adv-x="1062" d="M57 526.5q0 229.5 127 390t348 160.5q219 0 346.5 -161.5t127.5 -389.5q0 -229 -127 -390t-348.5 -161t-347.5 161t-126 390.5zM98 526q0 -213 116 -361.5t318 -148.5q201 0 317 149.5t116 360.5q0 209 -116 359.5t-317 150.5q-203 0 -318.5 -149.5t-115.5 -360.5z M322 1452h59l256 -295h-31z" />
<glyph unicode="&#xf3;" horiz-adv-x="1062" d="M57 526.5q0 229.5 127 390t348 160.5q219 0 346.5 -161.5t127.5 -389.5q0 -229 -127 -390t-348.5 -161t-347.5 161t-126 390.5zM98 526q0 -213 116 -361.5t318 -148.5q201 0 317 149.5t116 360.5q0 209 -116 359.5t-317 150.5q-203 0 -318.5 -149.5t-115.5 -360.5z M420 1157l270 295h60l-299 -295h-31z" />
<glyph unicode="&#xf4;" horiz-adv-x="1062" d="M57 526.5q0 229.5 127 390t348 160.5q219 0 346.5 -161.5t127.5 -389.5q0 -229 -127 -390t-348.5 -161t-347.5 161t-126 390.5zM98 526q0 -213 116 -361.5t318 -148.5q201 0 317 149.5t116 360.5q0 209 -116 359.5t-317 150.5q-203 0 -318.5 -149.5t-115.5 -360.5z M285 1167l231 285h31l233 -285h-41l-211 252l-202 -252h-41z" />
<glyph unicode="&#xf5;" horiz-adv-x="1062" d="M57 526.5q0 229.5 127 390t348 160.5q219 0 346.5 -161.5t127.5 -389.5q0 -229 -127 -390t-348.5 -161t-347.5 161t-126 390.5zM98 526q0 -213 116 -361.5t318 -148.5q201 0 317 149.5t116 360.5q0 209 -116 359.5t-317 150.5q-203 0 -318.5 -149.5t-115.5 -360.5z M262 1188q0 57 43 109.5t96 52.5q49 0 135.5 -59.5t125.5 -59.5q45 0 72.5 33.5t27.5 78.5h41q0 -63 -37 -108t-104 -45q-53 0 -135.5 59.5t-125.5 59.5q-41 0 -69.5 -40t-28.5 -81h-41z" />
<glyph unicode="&#xf6;" horiz-adv-x="1062" d="M57 526.5q0 229.5 127 390t348 160.5q219 0 346.5 -161.5t127.5 -389.5q0 -229 -127 -390t-348.5 -161t-347.5 161t-126 390.5zM98 526q0 -213 116 -361.5t318 -148.5q201 0 317 149.5t116 360.5q0 209 -116 359.5t-317 150.5q-203 0 -318.5 -149.5t-115.5 -360.5z M352 1163v166h41v-166h-41zM672 1163v166h41v-166h-41z" />
<glyph unicode="&#xf7;" horiz-adv-x="1228" d="M98 498v41h1032v-41h-1032zM530 84q0 37 25 60.5t59.5 23.5t59 -24.5t24.5 -59.5q0 -84 -84 -84t-84 84zM530 952q0 37 25 60.5t59.5 23.5t59 -24.5t24.5 -59.5q0 -84 -84 -84t-84 84z" />
<glyph unicode="&#xf8;" horiz-adv-x="1062" d="M37 45l123 127q-102 145 -103 354q0 229 127 390t348 161q213 0 342 -157l93 96l28 -29l-96 -100q106 -147 107 -361q0 -229 -127 -390t-349 -161q-217 0 -348 162l-116 -121zM98 526q0 -186 90 -323l656 686q-115 147 -312 147q-203 0 -318.5 -149.5t-115.5 -360.5z M213 170q113 -154 319 -154q201 0 317 149.5t116 360.5q0 190 -97 330z" />
<glyph unicode="&#xf9;" d="M113 354v699h41v-693q0 -172 94 -258t239 -86q180 0 281.5 127t101.5 314v596h41v-1053h-41v260h-4q-31 -127 -130 -206t-249 -79q-168 0 -271 100.5t-103 278.5zM301 1452h59l256 -295h-30z" />
<glyph unicode="&#xfa;" d="M113 354v699h41v-693q0 -172 94 -258t239 -86q180 0 281.5 127t101.5 314v596h41v-1053h-41v260h-4q-31 -127 -130 -206t-249 -79q-168 0 -271 100.5t-103 278.5zM399 1157l271 295h59l-299 -295h-31z" />
<glyph unicode="&#xfb;" d="M113 354v699h41v-693q0 -172 94 -258t239 -86q180 0 281.5 127t101.5 314v596h41v-1053h-41v260h-4q-31 -127 -130 -206t-249 -79q-168 0 -271 100.5t-103 278.5zM264 1167l232 285h30l234 -285h-41l-211 252l-203 -252h-41z" />
<glyph unicode="&#xfc;" d="M113 354v699h41v-693q0 -172 94 -258t239 -86q180 0 281.5 127t101.5 314v596h41v-1053h-41v260h-4q-31 -127 -130 -206t-249 -79q-168 0 -271 100.5t-103 278.5zM332 1163v166h41v-166h-41zM651 1163v166h41v-166h-41z" />
<glyph unicode="&#xfd;" horiz-adv-x="833" d="M-25 1053h45l418 -998l377 998h43l-485 -1268q-20 -51 -47 -83t-68 -45t-72.5 -16t-91.5 -3v40q113 -2 162 22t84 114l76 196zM305 1202l270 295h60l-299 -295h-31z" />
<glyph unicode="&#xfe;" horiz-adv-x="1099" d="M113 -362v1824h41v-704h4q43 145 149.5 232t272.5 87q215 0 331.5 -151.5t116.5 -397.5q0 -154 -45 -274.5t-149.5 -199.5t-253.5 -79q-160 0 -272.5 87.5t-149.5 232.5h-4v-657h-41zM154 528q0 -240 117.5 -376t308.5 -136q147 0 242.5 80t130 189.5t34.5 242.5 q0 219 -101.5 363.5t-306 144.5t-315 -145.5t-110.5 -362.5z" />
<glyph unicode="&#xff;" horiz-adv-x="833" d="M-25 1053h45l418 -998l377 998h43l-485 -1268q-20 -51 -47 -83t-68 -45t-72.5 -16t-91.5 -3v40q113 -2 162 22t84 114l76 196zM238 1208v166h41v-166h-41zM557 1208v166h41v-166h-41z" />
<glyph unicode="&#x152;" horiz-adv-x="2086" d="M66 723q0 211 73.5 383t230 281.5t371.5 109.5q254 0 402 -168v133h889v-41h-848v-639h749v-41h-749v-700h848v-41h-889v133q-162 -168 -402 -168q-317 0 -496 218t-179 540zM106 723q4 -317 174.5 -517t460.5 -200q240 0 402 187v1083q-96 98 -184.5 139t-217.5 41 q-289 0 -460 -200.5t-175 -532.5z" />
<glyph unicode="&#x153;" horiz-adv-x="1822" d="M66 526q0 106 23.5 200.5t72.5 175.5t135 128t201 47q168 0 276.5 -98t130.5 -262h4q29 164 130.5 261t283.5 99q213 2 321.5 -149.5t108.5 -378.5v-31h-823q-4 -502 393 -502q313 0 375 338h41q-29 -176 -135.5 -277.5t-280.5 -101.5t-280.5 90.5t-131.5 256.5h-4 q-35 -164 -137 -255.5t-272 -91.5q-147 0 -247.5 82t-142.5 202t-42 267zM106 526q0 -213 96.5 -361.5t295.5 -148.5q109 0 186.5 41t121.5 115t63.5 161t19.5 193q0 102 -20.5 190.5t-64.5 162t-122 115.5t-184 42q-199 0 -295.5 -146.5t-96.5 -363.5zM930 559h782 q-4 211 -98 344t-289 133q-377 0 -395 -477z" />
<glyph unicode="&#x178;" horiz-adv-x="1101" d="M-61 1462h51l561 -803l563 803h49l-592 -846v-616h-41v616zM371 1573v166h41v-166h-41zM690 1573v166h41v-166h-41z" />
<glyph unicode="&#x2c6;" horiz-adv-x="266" d="M-115 1212l232 285h30l234 -285h-41l-211 252l-203 -252h-41z" />
<glyph unicode="&#x2dc;" horiz-adv-x="266" d="M-137 1233q0 57 43 109.5t96 52.5q49 0 135 -59.5t125 -59.5q45 0 72.5 33.5t27.5 79.5h41q0 -63 -36.5 -108.5t-104.5 -45.5q-53 0 -135 59.5t-125 59.5q-41 0 -69.5 -40t-28.5 -81h-41z" />
<glyph unicode="&#x2013;" d="M0 528v41h1024v-41h-1024z" />
<glyph unicode="&#x2014;" horiz-adv-x="2048" d="M266 528v41h1516v-41h-1516z" />
<glyph unicode="&#x2018;" horiz-adv-x="342" d="M150 1001v242q0 106 18 147.5t74 71.5v-41q-51 -33 -52 -178v-242h-40z" />
<glyph unicode="&#x2019;" horiz-adv-x="342" d="M100 1001v41q51 33 52 179v241h41v-241q0 -106 -19 -147.5t-74 -72.5z" />
<glyph unicode="&#x201a;" horiz-adv-x="342" d="M98 -203q51 49 52 203v201h40v-201q0 -182 -92 -244v41z" />
<glyph unicode="&#x201c;" horiz-adv-x="569" d="M170 1001v242q0 106 18.5 147.5t73.5 71.5v-41q-51 -33 -51 -178v-242h-41zM375 1001v242q0 106 18.5 147.5t73.5 71.5v-41q-51 -33 -51 -178v-242h-41z" />
<glyph unicode="&#x201d;" horiz-adv-x="569" d="M102 1001v41q51 33 52 179v241h41v-241q0 -106 -19 -147.5t-74 -72.5zM307 1001v41q51 33 51 179v241h41v-241q0 -106 -18.5 -147.5t-73.5 -72.5z" />
<glyph unicode="&#x201e;" horiz-adv-x="569" d="M102 -203q51 49 52 203v201h41v-201q0 -182 -93 -244v41zM307 -203q51 49 51 203v201h41v-201q0 -182 -92 -244v41z" />
<glyph unicode="&#x2022;" d="M147 731.5q0 151.5 106.5 258t258.5 106.5t259.5 -106.5t107.5 -258t-107.5 -259t-259.5 -107.5t-258.5 107.5t-106.5 259z" />
<glyph unicode="&#x2026;" horiz-adv-x="2048" d="M322 0v201h40v-201h-40zM1004 0v201h40v-201h-40zM1686 0v201h40v-201h-40z" />
<glyph unicode="&#x2039;" horiz-adv-x="530" d="M135 532v33l211 285v-72l-170 -229l170 -230v-71z" />
<glyph unicode="&#x203a;" horiz-adv-x="530" d="M184 248v71l170 230l-170 229v72l211 -285v-33z" />
<glyph unicode="&#x20ac;" horiz-adv-x="1138" d="M0 551l14 35h109q-4 29 -4 43v43q0 41 4 119h-123l14 34h113q33 262 196.5 430t421.5 168q209 0 381 -135l-18 -33q-170 131 -365 131q-240 0 -392 -158.5t-183 -402.5h833l-18 -34h-819q-4 -66 -4 -99q0 -53 6 -106h774l-18 -35h-752q39 -236 187.5 -390.5t379.5 -154.5 q256 0 424 199v-55q-178 -180 -430 -181q-248 0 -407.5 165t-198.5 417h-125z" />
<glyph unicode="&#x2122;" horiz-adv-x="2027" d="M168 1421v41h655v-41h-307v-803h-41v803h-307zM1016 618v844h69l332 -786l332 786h70v-844h-41v803h-4l-336 -803h-41l-336 803h-4v-803h-41z" />
<glyph unicode="&#xe000;" horiz-adv-x="1055" d="M0 1055h1055v-1055h-1055v1055z" />
<glyph unicode="&#xfb01;" horiz-adv-x="681" d="M-2 1012v41h180v233q0 59 18.5 97t53.5 54.5t63.5 20.5t71.5 4q16 0 32.5 -1t33 -4t22.5 -3v-41q-51 8 -96 8q-94 0 -126 -33.5t-32 -115.5v-219h227v-41h-227v-1012h-41v1012h-180zM528 0v1053h41v-1053h-41zM528 1255v207h41v-207h-41z" />
<glyph unicode="&#xfb02;" horiz-adv-x="681" d="M-2 1012v41h180v233q0 59 18.5 97t53.5 54.5t63.5 20.5t71.5 4q16 0 32.5 -1t33 -4t22.5 -3v-41q-51 8 -96 8q-94 0 -126 -33.5t-32 -115.5v-219h227v-41h-227v-1012h-41v1012h-180zM528 0v1462h41v-1462h-41z" />
<glyph unicode="&#xfb03;" horiz-adv-x="1101" d="M949 0v1053h41v-1053h-41zM949 1255v207h41v-207h-41zM416 1012v41h180v233q0 59 18.5 97t53.5 54.5t63.5 20.5t71.5 4q16 0 32.5 -1t33 -4t22.5 -3v-41q-51 8 -96 8q-94 0 -126 -33.5t-32 -115.5v-219h227v-41h-227v-1012h-41v1012h-180zM-2 1012v41h180v233 q0 59 18.5 97t53.5 54.5t63.5 20.5t71.5 4q16 0 32.5 -1t33 -4t22.5 -3v-41q-51 8 -96 8q-94 0 -126 -33.5t-32 -115.5v-219h227v-41h-227v-1012h-41v1012h-180z" />
<glyph unicode="&#xfb04;" horiz-adv-x="1101" d="M949 0v1462h41v-1462h-41zM416 1012v41h180v233q0 59 18.5 97t53.5 54.5t63.5 20.5t71.5 4q16 0 32.5 -1t33 -4t22.5 -3v-41q-51 8 -96 8q-94 0 -126 -33.5t-32 -115.5v-219h227v-41h-227v-1012h-41v1012h-180zM-2 1012v41h180v233q0 59 18.5 97t53.5 54.5t63.5 20.5 t71.5 4q16 0 32.5 -1t33 -4t22.5 -3v-41q-51 8 -96 8q-94 0 -126 -33.5t-32 -115.5v-219h227v-41h-227v-1012h-41v1012h-180z" />
</font>
</defs>
</svg>
